#TITLE:Joker;
#SUBTITLE:;
#ARTIST:D.J. Nero;
#TITLETRANSLIT:;
#SUBTITLETRANSLIT:;
#ARTISTTRANSLIT:;
#CREDIT:;
#BANNER:banner.jpg;
#BACKGROUND:background.jpg;
#LYRICSPATH:;
#CDTITLE:;
#MUSIC:Joker.mp3;
#OFFSET:0.880;
#SAMPLESTART:99.880;
#SAMPLELENGTH:12.000;
#SELECTABLE:YES;
#BPMS:0.000=184.000,216.000=92.000,248.000=184.000;
#STOPS:;
#BGCHANGES:;
// cache tags:
#FIRSTBEAT:5.000;
#LASTBEAT:360.000;
#SONGFILENAME:Songs/Super Dancer Online/Joker/Joker.sm;
#HASMUSIC:1;
#HASBANNER:1;
#MUSICLENGTH:128.052;
// end cache tags

//---------------dance-single - ----------------
#NOTES:
     dance-single:
     :
     Challenge:
     13:
     1.000,1.000,1.000,0.117,1.000,1116.000,654.000,15.000,0.000,197.000:
0000
0000
0000
0000
,
0000
0000
0200
0000
0000
0000
0000
0300
,
1110
1110
0111
1101
0000
2002
0000
3003
,
1110
1110
0111
1101
0000
2002
0000
3003
,
0111
1000
0101
1000
0010
1000
0111
1000
0001
0100
1001
0100
0010
1000
0010
0001
,
1110
0001
1100
0010
0100
0001
1110
0000
1000
0001
1100
0010
0100
0010
0101
0010
,
1101
0011
1110
0101
1011
0101
1110
0011
,
0111
1100
1110
0011
1011
0101
1110
0011
,
1110
0101
1011
0110
1011
0101
1110
1001
,
0111
1100
1110
0011
1101
1100
0111
1010
,
1001
0010
0100
0000
0111
0000
1000
0010
0101
0010
1000
0000
1110
0000
0001
0100
,
1010
0001
0100
0000
1110
0000
0001
0010
0101
0010
1000
0000
1110
0000
0001
1000
,
0110
1000
0001
0000
1110
0000
0100
0010
1100
0001
1000
0000
1110
0000
0001
1000
,
0101
1000
0010
0000
1101
0000
0010
0001
1100
0010
0001
0000
1110
0000
0001
0010
,
1101
1010
1111
1001
1110
0101
1111
1010
,
1011
1100
1111
0101
1110
0011
1111
1010
,
1101
0011
1111
0110
1101
0011
1111
1100
,
0111
1010
1111
0101
0111
0110
1111
1001
,
0011
0100
1010
0000
0111
0000
1001
0100
1010
0100
0011
0000
1101
0000
1100
0010
,
0101
1000
0011
0000
1110
0000
1001
0010
1100
0010
0101
0000
1101
0000
0011
1000
,
0110
0001
0110
0000
1110
0000
0011
1000
0101
1000
0101
0000
1110
0000
0011
1000
,
0111
0000
1000
1000
0110
1000
0110
0001
0001
0000
0001
0000
0111
1000
1001
0110
,
1001
0100
0010
1000
0111
1000
0001
0100
0011
0100
1001
0010
1100
0010
1001
0001
,
1010
0001
1100
0010
1001
0100
0011
0100
1011
0100
0010
1000
0111
1000
1000
0100
,
1010
0001
0100
0010
1101
0010
0100
1000
0110
1000
0011
0100
1001
0100
1010
0100
,
0011
1000
0110
0001
1100
0010
0011
0100
1011
0100
1001
0010
0101
1000
0110
0001
,
1010
0100
0001
0010
1101
0010
1000
0100
1010
0001
0110
1000
0111
0000
0011
0100
,
1001
0100
0011
1000
0110
1000
0001
1100
1011
0100
1001
0110
1101
0010
0101
1000
,
0101
0010
1000
0001
1110
0001
1000
0010
0101
0010
1100
0001
1110
0001
1100
0001
,
1001
0010
1001
0011
1110
0001
0011
1100
0011
1000
0101
0010
1101
0010
1100
0001
,
1110
0001
0110
1001
0100
1000
0110
1001
0010
0101
1010
0001
1100
0010
1001
0010
,
1100
0001
0110
1000
0011
1000
0110
1001
0010
0101
1010
0001
1100
0010
0101
0001
,
1100
0001
0110
1000
0011
1000
0110
1001
0010
1100
0011
0100
1001
0010
1100
0001
,
0110
0001
1100
0010
1001
0100
0011
1100
0001
0110
1001
0100
0011
0100
1001
0010
,
1100
0001
0110
1000
0111
1000
0110
1001
0010
1100
0011
0100
1011
0100
0011
0010
,
1001
0100
0011
1000
0111
1000
0011
1100
0001
0110
1001
0100
1011
0100
0011
1000
,
0110
0001
1100
0010
1101
0010
1100
0011
1000
0110
1001
0000
1011
0100
1010
0001
,
1110
0001
1000
0100
1011
0100
1011
0100
0010
0001
1000
0100
1011
0100
0011
1000
,
0111
1000
1111
1011
0101
1010
0011
1100
,
0101
1010
1101
1010
0101
1010
1001
1100
,
0111
0000
0010
0000
1111
0000
1101
0000
0010
0000
0101
0000
0011
0100
1010
0001
,
2100
0010
3111
0011
0102
1010
1103
0010
,
0111
1000
0110
1110
0001
0110
1101
0110
,
1110
0101
0111
1001
0110
1100
1001
0100
,
1011
0000
0000
0000
0110
0000
1010
0000
0101
0000
0011
0000
1101
0010
0101
0000
,
1110
0000
0101
0000
1010
0000
0110
0000
0111
0000
1010
0000
0110
0000
1001
0010
,
1101
0000
0010
0000
1011
0100
1010
0001
1100
0010
0101
0010
1001
0100
0011
1000
,
0110
0100
0001
0000
1110
0000
0110
0000
1010
0001
0110
0000
1101
0010
1001
0000
,
1011
0000
0100
0000
1001
0110
1001
0110
1001
0010
0101
1000
0111
0000
1101
0000
,
0110
1000
0011
0100
1001
0010
0101
1000
0011
1000
0101
0010
1001
0100
1001
0010
,
1101
0010
1111
1110
0001
1001
1110
1010
,
0111
1010
1011
1100
1110
1010
1101
1001
,
1101
0010
0100
0010
1001
0010
0101
0010
1001
0010
0100
0001
1010
0101
1010
0100
,
1011
0011
0100
0011
1100
0010
1001
0010
1100
1100
0011
1100
0011
0100
1001
1001
,
0210
0011
2011
3011
,
0311
1011
1101
1110
,
0111
0111
2111
3111
,
1011
0000
0000
0000
1011
0000
0000
0000
1101
0020
0000
0000
1101
0030
0000
0000
,
1111
0000
1101
0010
1111
0000
1101
0010
1100
0010
1101
0010
1111
0000
1101
0000
,
1011
0000
0111
1000
1111
0000
1011
0100
0011
0100
1001
0100
1111
0000
1101
1000
,
0111
0010
1010
0011
1111
0100
1100
0110
1001
1010
1100
1010
1111
0101
0101
0001
,
1010
0110
1011
0111
1111
1001
1111
1010
1111
0011
1110
1111
1111
1001
0111
0100
,
1011
0100
0010
0001
0000
0000
1100
1100
0010
1000
0010
0001
0100
1000
0100
0010
,
0001
0010
0100
1000
0011
0011
0000
0011
0100
0010
0100
0000
0111
1110
0111
0000
,
0001
1000
0001
0010
0100
0010
0001
0010
0010
0100
0001
1000
0100
0010
0001
0110
,
0111
1001
1001
0000
0011
1100
1100
0000
0101
1010
1010
0000
1100
0011
0011
0011
,
0100
1001
0010
1000
0101
0010
0001
1100
0010
1100
0001
1000
0110
1000
0100
1010
,
0001
0110
0001
1000
0101
0010
0001
1100
0010
1100
0001
0010
1001
0100
0010
0001
,
1100
0011
0000
0011
0000
0011
0010
0000
0010
0001
0010
0100
1000
0100
0010
0001
,
0010
0100
1000
0100
0011
0100
1001
0100
0011
0100
1010
0001
1010
0100
0010
0001
,
0110
1000
0101
0010
1001
0100
0011
0100
1001
0010
1100
0010
1001
0010
0101
1000
,
0110
1001
0110
1000
0011
1100
0110
1001
0110
1000
0101
0010
1001
0110
1001
0100
,
1011
1011
1011
0000
1100
1010
0100
1011
0100
1000
0011
1001
0110
1011
0101
1010
,
0110
1001
1001
0010
0101
1010
1010
1101
0011
1100
1100
0010
1100
0011
1100
0011
,
1100
0010
1001
0010
0101
1000
0011
0100
1010
0001
1100
0011
1000
0101
1010
0101
,
1010
0001
1010
0001
1100
0010
1101
0010
1101
0010
1001
0100
1010
0001
1100
0001
,
1010
0101
0010
0101
1000
0101
0111
1000
0011
1100
0011
0101
1010
0101
1010
0011
,
0101
1000
1000
0101
1010
1000
0111
1000
1000
0101
1000
1000
0101
0011
1110
0001
,
1110
0001
1100
0010
1101
0010
0101
1000
0110
0001
1010
0100
1011
0100
1010
0001
,
1100
0011
1100
0001
0110
1001
1010
0100
1011
0100
1001
0010
1001
0110
1001
0100
,
1011
1011
1011
0000
1010
0011
1000
0101
0010
0100
1001
0101
1010
0111
1011
0100
,
1001
0100
0001
0010
1100
0001
1100
0010
1101
0011
1100
0011
1001
0110
1001
0110
,
1100
1000
0100
1001
0110
0001
1010
0100
1010
0001
0110
1000
0011
0100
1001
0110
,
1001
0010
1100
0001
1010
0100
1000
0110
1001
1001
0100
0010
1100
0001
0010
0100
,
1011
0110
0001
0110
1000
0110
0110
0001
1100
0011
1100
0011
1001
0110
1001
0010
,
0101
1000
1010
0001
1100
1000
0011
1000
1010
0001
1100
1000
0001
0110
1100
1000
,
0111
1000
0100
0010
0001
0001
1110
0001
0010
0100
1000
0001
1110
1100
0000
1100
,
1011
0001
0100
1000
0100
0010
1110
0001
0100
0010
0001
0010
1110
1100
0000
1100
,
1111
0010
1000
0100
0010
0001
1111
1000
0100
0010
0001
0100
1111
1001
0000
1001
,
2222
0000
0000
0000
,
3333
0000
0000
0000
;

//---------------dance-single - ----------------
#NOTES:
     dance-single:
     :
     Hard:
     11:
     1.000,1.000,1.000,0.016,1.000,970.000,528.000,2.000,0.000,84.000:
0000
0000
0000
0000
,
0000
0000
0000
0000
,
1001
0110
1010
1100
0000
0011
0000
0000
,
1100
0110
0011
1100
0000
0011
0000
0000
,
1001
0100
0010
0100
0010
0100
0011
0100
0010
0100
1001
0100
0010
0001
0010
0100
,
1001
0100
0011
0100
1001
0100
0010
0100
0010
0001
1010
0100
1001
0010
1100
0011
,
1101
1001
1111
0011
1110
1001
1111
1001
,
1100
0011
1111
1100
0011
1001
1111
0011
,
1100
1001
1111
1001
0101
1001
1111
1010
,
0101
1001
1111
0101
1001
1100
1111
0011
,
1111
1001
1111
0011
1001
1100
1111
0101
,
1010
0101
1111
0101
1001
1010
1101
1001
,
0101
1100
1111
1001
0101
1001
1111
1001
,
1010
0011
1111
1101
0110
1011
1111
1101
,
1111
1010
1111
1001
0101
1100
1111
0101
,
1010
1010
1111
1010
1100
0011
1111
0101
,
1010
1100
1111
0101
1010
0101
1111
1001
,
1010
0110
1111
0101
0011
0110
1111
1100
,
0110
1001
1111
0110
1001
0110
1111
0110
,
1010
0101
1111
0110
0011
1100
1111
1101
,
0110
1010
1111
0011
0101
1100
1111
0110
,
1111
0000
1000
0100
1010
0000
0110
1000
0110
0000
0100
0000
1001
0100
0010
0100
,
1001
0000
0001
0000
1010
0000
0001
0010
1001
0100
1010
0000
0101
0000
1010
0000
,
0011
0000
1001
0000
0110
0000
1100
0001
0110
0001
1000
0000
0110
0000
0011
0000
,
1100
0000
0100
0000
1010
0000
0010
0001
1100
0001
0110
0000
1001
0000
1010
0000
,
0101
0000
1001
0000
0110
0000
1000
0010
1100
0001
1010
0000
0110
0000
1100
0000
,
0011
0000
0100
0000
1010
0001
0100
0001
1100
0000
1010
0000
0101
0000
1010
0000
,
0101
0000
0011
0000
0101
0000
1010
0001
1100
0000
1001
0100
0011
0000
1000
0000
,
1100
0000
0010
0000
1101
0000
0001
0010
0100
0001
1100
0000
1010
0000
0101
0000
,
1001
0000
0101
0010
1101
0000
0110
0001
1000
0010
0101
0000
1001
0000
0110
0000
,
1011
0000
0100
0000
1001
0000
0100
1000
0010
0001
0110
0000
1010
0000
1100
0000
,
0101
0000
1010
0000
0101
0000
0010
0001
1010
0100
0001
0000
1100
0000
0100
0000
,
1001
0000
0010
0000
0101
0000
0010
0100
0010
1000
0101
0000
1010
0000
1100
0000
,
0101
0000
1010
0000
0101
0000
1010
0100
0010
0001
0110
0000
1001
0000
0010
0000
,
1100
0000
0010
0000
1101
0000
0010
0100
1000
0001
0110
0000
1011
0000
0110
0000
,
1001
0000
0110
0000
1011
0000
0101
1000
0010
0001
0110
1000
0111
0000
1001
0000
,
0110
0000
0001
0000
1110
0000
0001
1000
0010
1000
0101
0000
1010
0000
0011
0000
,
1100
0010
0100
0000
1001
0000
0100
0000
1010
0001
0010
0000
1001
0000
1001
0010
,
1100
0000
0110
0011
1000
0100
0011
1000
,
0101
0000
1010
0000
0101
0000
1010
0000
1100
0000
0011
0000
1000
0000
0011
0100
,
1001
0000
0000
0000
0010
0000
0100
0000
1000
0000
0011
0000
0100
0010
1001
0100
,
0011
0000
0101
1010
0100
1001
0110
1000
,
0011
0100
0010
0101
0010
1000
0110
1000
,
0101
1010
1100
0110
0001
0110
1001
0100
,
0011
0000
0000
0000
0110
0000
1001
0000
0100
0000
1010
0000
1000
0100
0011
0000
,
1101
0010
0001
0010
1100
0010
0001
0010
,
1101
0000
0001
0000
1100
0010
0100
0010
0001
0010
0100
1000
0101
0010
0001
0010
,
1100
1100
0000
0000
1011
0000
0110
0000
1001
0000
1010
0000
1100
0000
1001
0000
,
1010
0000
0100
0000
1001
0010
1000
0100
0010
0001
1000
0100
1010
0001
0010
1000
,
0101
0010
0100
1000
0101
0010
0100
1000
0101
0010
0100
1000
0101
0010
0100
1000
,
0101
1000
0110
1001
0100
0010
1101
0010
,
1100
0011
0110
1001
0100
1010
0101
1010
,
1101
0000
0000
0000
0011
0000
1100
0000
1000
0000
0001
0000
0100
0010
1001
0000
,
0110
1100
0000
0011
1100
0000
0011
0000
0011
0011
1100
0011
1100
0000
1100
0010
,
1011
0010
1100
1000
,
0100
0001
0010
0100
,
0010
0010
1010
0010
,
0101
0011
0110
1100
,
1010
0000
1100
0010
1101
0000
1010
0100
1001
0100
1010
0100
1011
0000
1001
0000
,
1110
0000
1001
0010
1101
0000
1001
0010
1001
0010
1100
0010
1101
0000
1001
0001
,
1010
0001
0110
0000
1100
0001
0110
0001
1010
0001
0110
0001
1100
0001
0110
0001
,
1110
1000
1000
1000
1110
1000
1000
1000
1100
1000
1000
1000
1110
1000
1000
1000
,
1101
0010
0100
1000
0000
0000
1000
0100
1000
0100
0010
0001
0010
0100
0010
0100
,
1000
0100
0010
0001
0110
0110
0000
0110
0001
0010
0100
0000
1100
0011
1100
0000
,
0011
1100
0011
0100
1000
0100
0010
0100
1000
0010
0100
0001
0010
0100
1000
0010
,
1100
1100
1100
0000
0110
0110
0110
0000
1100
1100
1100
0000
1001
1001
1001
0000
,
0010
0100
1000
0100
1000
0100
0010
0001
0010
0100
0010
0001
0010
0100
1000
0100
,
0010
0001
0010
0001
0100
1000
0100
0010
0001
0010
0001
1000
0100
1000
0100
0010
,
1001
1001
0000
1001
0000
1001
1001
0000
1000
0100
0010
0100
0001
0010
0100
1000
,
0001
0010
0100
0010
0001
0010
0100
0010
0001
0010
0100
0010
0100
1000
0100
0010
,
1001
0100
1010
0100
1011
0100
1010
0101
0010
0101
1010
0100
1011
0100
1010
0001
,
0110
1000
0110
0001
0110
0001
1010
0100
0011
1100
0011
0100
1011
0100
1010
0001
,
0110
1000
0011
0100
1010
0001
0100
1001
0000
1000
0101
0010
1001
0100
0011
0000
,
1100
0001
0110
0000
1001
0100
1001
0100
1000
0101
1010
0000
1010
0001
1010
0100
,
1001
0100
1010
0100
1010
0100
1010
0101
0010
1100
0011
0100
1011
0100
1001
0100
,
1010
0001
1010
0100
1011
0100
1001
1010
0001
1010
0101
0010
1101
0010
1100
0010
,
1101
0100
1000
0100
0011
1000
0110
0000
0010
0101
1010
0100
1010
0100
0011
0100
,
1011
0100
0010
1000
0101
0010
1001
0010
0101
0010
0100
1000
0101
0010
1001
0100
,
1011
0100
1001
0010
1101
0010
1100
0011
1000
0101
1010
0001
1110
0001
1010
0100
,
1010
0001
0110
0001
1110
0001
1010
1100
0010
0101
1010
0001
1110
0001
1100
0010
,
1100
0010
0101
0010
1101
0010
0001
1010
0000
0001
1100
0010
1101
0010
0101
0000
,
1010
0001
1100
0001
0110
0001
0110
0001
1100
0011
1100
0001
1110
0001
1000
0001
,
1010
0001
1100
0001
1110
0001
0110
1001
0100
1001
0110
0001
1110
0001
1010
0100
,
1010
0001
0110
1000
0111
1000
0001
0110
0000
0011
1100
0001
1110
0001
1010
0100
,
1010
0101
1000
0101
0010
0001
1100
0001
1100
0011
1100
0011
1001
0110
1001
0110
,
1001
0010
0100
0011
1100
0010
0001
0100
1001
0010
0100
0010
1001
0100
1010
0001
,
1110
0001
0010
0001
0010
0100
1000
0100
0010
0100
1001
0100
0011
0011
0000
0011
,
1011
0100
1000
0100
0010
0001
0110
1000
0100
0010
0001
0100
1010
1010
0000
1010
,
1001
0010
0100
1000
0010
0100
1001
0010
0100
0010
0100
1001
1001
0000
0000
1001
,
2002
0000
0000
0000
,
3003
0000
0000
0000
;
